Sakarya Forum - 2006 Unutmayınız : Çalışmayan Linkleri Bildirirseniz, Güncel Linkler ile Değiştirebiliriz.
Hoşgeldiniz, Ziyaretçi.Lütfen giriş yapın veya kayıt olun.

Ana Sayfa Ara Yayın Akışı Google Tag Etiket Giriş Yap Kayıt

Tüm oyun fırsatları için tıklayın !


Konu Bilgileri

Faili Mechul (33 Erimizin Sehit Edilmesi) DVBRip XviD

Görüntülenme : 312 defa

Konudaki Cevap Sayisi :0

Sayfa: [1]   Aşağı git
Yazdır
Gönderen Konu: Faili Mechul (33 Erimizin Sehit Edilmesi) DVBRip XviD  (Okunma Sayısı 312 defa)
0 Üye ve 1 Ziyaretçi konuyu incelemekte.

the_raculaa

Astsubay

*


Prestij : 0

Üye Şu Anda : Çevrimdışı Çevrimdışı

Mesaj Sayısı : 606
Konu Sayısı : 605
Nerden :
İletişim Bilgileri
: 21 Eylül 2011, 20:46:11












SunumunKendisinden Alınmıştır.
           










Tek Link indir

 
>>> Uploaded <<<

http://ul.to/file/hxv0sjwz/Faili%20Mechul%20%5B33%20Erimizin%20Sehit%20Edilmesi%5D%20DVBRip%20XviD.avi

>>> Fileserve <<<

http://www.fileserve.com/file/Fm5Rq7y/Faili Mechul [33 Erimizin Sehit Edilmesi] DVBRip XviD.avi

>>> Filejungle <<<

http://www.filejungle.com/f/335AtB/Faili_Mechul_[33_Erimizin_Sehit_Edilmesi]_DVBRip_XviD.avi



Alıntı
                       Faili Mechul [33 erimizin şehit edilmesi] DVBRip XviD TURG.avi
Format                           : AVI
Format/Info                      : Audio Video Interleave
File size                        : 397 MiB
Duration                         : 42mn 36s
Overall bit rate                 : 1 302 Kbps
Writing application              : VirtualDubMod 1.5.4.1 (build 2178/release)
Writing library                  : VirtualDubMod build 2178/release

Video
ID                               : 0
Format                           : MPEG-4 Visual
Format profile                   : Advanced Simple@L5
Format settings, BVOP            : 2
Format settings, QPel            : No
Format settings, GMC             : No warppoints
Format settings, Matrix          : Default (H.263)
Codec ID                         : XVID
Codec ID/Hint                    : XviD
Duration                         : 42mn 36s
Bit rate                         : 1 196 Kbps
Width                            : 720 pixels
Height                           : 480 pixels
Display aspect ratio             : 3:2
Frame rate                       : 25.000 fps
Standard                         : NTSC
Color space                      : YUV
Chroma subsampling               : 4:2:0
Bit depth                        : 8 bits
Scan type                        : Progressive
Compression mode                 : Lossy
Bits/(Pixel*Frame)               : 0.138
Stream size                      : 364 MiB (92%)
Writing library                  : XviD 1.2.1 (UTC 2008-12-04)

Audio
ID                               : 1
Format                           : AC-3
Format/Info                      : Audio Coding 3
Mode extension                   : CM (complete main)
Codec ID                         : 2000
Duration                         : 42mn 36s
Bit rate mode                    : Constant
Bit rate                         : 96.0 Kbps
Channel(s)                       : 2 channels
Channel positions                : Front: L R
Sampling rate                    : 48.0 KHz
Bit depth                        : 16 bits
Compression mode                 : Lossy
Stream size                      : 29.3 MiB (7%)
Alignment                        : Split accross interleaves
Interleave, duration             : 40 ms (1.00 video frame)
Interleave, preload duration     : 500 ms




Türkçe Dublaj Tek Link 2000 AD. Film 2 Alternatif. Wupload  Uploaded

     
Kayıtlı
Robot Moderatör
Anahtar Kelime
*****
Offline Pasif

Mesajlar: 27121


View Profile
Re: Faili Mechul (33 Erimizin Sehit Edilmesi) DVBRip XviD
« Posted on: 02 Şubat 2023, 19:04:30 »

 
      uyari
Merhaba ziyaretçi. Öncelikle sitemize hoşgeldiniz. Bendeniz tanitim moderatörü olarak siteden daha fazla yararlanmanız için sitemize üye olmanızı öneririm. iyi eğlenceler.

giris  kayit
Anahtar Kelimeler: Faili Mechul (33 Erimizin Sehit Edilmesi) DVBRip XviD oyunları, Faili Mechul (33 Erimizin Sehit Edilmesi) DVBRip XviD programı, Faili Mechul (33 Erimizin Sehit Edilmesi) DVBRip XviD oyunu indir, Faili Mechul (33 Erimizin Sehit Edilmesi) DVBRip XviD program yükle, Faili Mechul (33 Erimizin Sehit Edilmesi) DVBRip XviD download, Faili Mechul (33 Erimizin Sehit Edilmesi) DVBRip XviD hikayeleri, Faili Mechul (33 Erimizin Sehit Edilmesi) DVBRip XviD resimleri, Faili Mechul (33 Erimizin Sehit Edilmesi) DVBRip XviD haber, Faili Mechul (33 Erimizin Sehit Edilmesi) DVBRip XviD yükle, Faili Mechul (33 Erimizin Sehit Edilmesi) DVBRip XviD videosu, Faili Mechul (33 Erimizin Sehit Edilmesi) DVBRip XviD msn eklentisi, şarkı sözleri
Logged
Etiket:
Sayfa: [1]   Yukarı git
Yazdır

Anahtar Kelimeler
Faili Mechul (33 Erimizin Sehit Edilmesi) DVBRip XviD oyunları, Faili Mechul (33 Erimizin Sehit Edilmesi) DVBRip XviD programı, Faili Mechul (33 Erimizin Sehit Edilmesi) DVBRip XviD oyunu indir, Faili Mechul (33 Erimizin Sehit Edilmesi) DVBRip XviD program yükle, Faili Mechul (33 Erimizin Sehit Edilmesi) DVBRip XviD download, Faili Mechul (33 Erimizin Sehit Edilmesi) DVBRip XviD hikayeleri, Faili Mechul (33 Erimizin Sehit Edilmesi) DVBRip XviD resimleri, Faili Mechul (33 Erimizin Sehit Edilmesi) DVBRip XviD haber, Faili Mechul (33 Erimizin Sehit Edilmesi) DVBRip XviD yükle, Faili Mechul (33 Erimizin Sehit Edilmesi) DVBRip XviD videosu, Faili Mechul (33 Erimizin Sehit Edilmesi) DVBRip XviD msn eklentisi, şarkı sözleri

Benzer Konular
Konu Başlığı Başlatan Yanıtlar Görüntülenme Son Mesaj
İş hayatında dikkat edilmesi gereken 7 tehlike!!!!!!!
Slayt / Flash
nazzz 3 290 Son Mesaj 03 Nisan 2007, 18:33:05
Gönderen: ERKANDOGAN80
mechul kaptan
Dini
klmno 0 191 Son Mesaj 24 Eylül 2007, 13:49:39
Gönderen: klmno
16 sehit daha....
Tartışma Odası
deneyizmen 0 107 Son Mesaj 21 Ekim 2007, 15:03:21
Gönderen: deneyizmen
sehit oglun geldi
Paylaşmak İstedikleriniz...
Mine 2 168 Son Mesaj 23 Ekim 2007, 22:06:29
Gönderen: arzu
Faili Meçhul Bir Aşkın Kimliğinde Saklı Kaybım
Romantizm, Sevgi, Aşk Üzerine...
arzu 2 304 Son Mesaj 29 Aralık 2007, 20:48:06
Gönderen: saklidusler

Gitmek istediğiniz yer:  

Site Map | Arsiv | Wap | Wap2 | Wap Forum | XML | Rss
Ana Sayfa - Yardım - Ara - Takvim - Yayın Akışı - Üyeler MaviEtki by Z3ptian En iyi görüntü 1280x1024 ile alınabilir.
Powered by SMF 1.1.14 | SMF © 2006-2009, Simple Machines LLC - Bu Sayfa 0.31 Saniyede 30 Sorgu ile Oluşturuldu MySQL KullanıyorPHP KullanıyorXHTML 1.0 Uyumlu!CSS Uyumlu!

Site Map | Arşiv | Wap | Wap2 | Wap Forum | XML | Rss


site ekle